|
Page 1 of 1
  • You cannot start a new topic
  • You cannot reply to this topic
 

Growth 2009 DVDRip XviD AC3 مترجم Rate Topic: -----

#1 User is offline   fair man 

  • Very Cool Member
  • Icon
    PipPipPipPipPipPip
  • Group: Advanced Members
  • Posts: 1,368
  • Joined: 29-December 06
  • Gender:Male
  • Location:GIZA
  • Interests:Uploading..........
  • Gender: Male

  • Country: Egypt

Posted 31 August 2010 - 08:14 AM

Growth 2009 DVDRip XviD AC3

Posted Image

Posted Image

Format: Rmvb
File size: 220 MB
Duration: 1h 26mn
Overall bit rate: 2 266 Kbps
IMDb Rating: 4.3/10 470 votes
Genre: Horror | Sci-Fi | Thriller
Release:
IMDb: http://www.imdb.com/title/tt1300159/

Youtube :




Video

Format: MPEG-4 Visual
Format profile : Advanced Simple@L5
Format settings, QPel: No
Format settings, GMC: No warppoints
Format settings, Matrix: Default (H.263)
Muxing mode: Packed bitstream
Codec ID: XVID
Bit rate: 1 809 Kbps
Width: 720 pixels
Height: 304 pixels
Display aspect ratio: 2.35:1
Frame rate: 25.000 fps
Chroma subsampling: 4:2:0
Bit depth: 8 bits
Scan type: Progressive
Bits/(Pixel*Frame): 0.331
Stream size: 1.09 GiB (80%)


Audio

Format: AC3
Bit rate mode: Constant
Bit rate: 448 Kbps
Channel(s): 6 channels
Sampling rate: 48.0 KHz
Stream size: 277 MiB (20%)



Posted Image
in 1989, a breakthrough in advanced parasitic research on Cuttyhunk Island,
gave scientists a jump in human evolution. Initial tests proved promising
as subjects were experiencing heightened physical and mental strength and
awareness. But, something in the experiment went horribly wrong and the
island mysteriously lost three quarters of its population.


Tagline: Sometimes the Greatest Enemy Comes From Within

Posted Image
Mircea Monroe ... Jamie Ackerman
Christopher Shand... Justin Roberts
Brian Krause ... Marco
Nora Kirkpatrick ... Kristin Daniels
Richard Riehle ... Larkin Holberman
Mackenzie Brooke Smith ... Gwen Anderson
Alexi Wasser ... Sarah Holberman
Ian Patrick Williams ... Mason Lane
Robert Pike Daniel ... Jake
Lou Richards ... Dr. Macavire
Yousef Abu-Taleb ... Sgt. George Seitz
Jessica Dercks ... Liz
Brad Culver ... Andy
Brett Mann ... Karl
John Suits ... John Maxim



Posted Image
Posted Image
Posted Image
Posted Image
Posted Image
Posted Image
Posted Image

Posted Image

Download Links

Part 1

Rapidshare

Megashare

Hotfile

Badongo

2shared

Despositfiles

Ifile

Megaupload

Sendspace


Part 2

Rapidshare

Megashare

Hotfile

Badongo

2shared

Despositfiles

Ifile

Megaupload

Sendspace

Password:

www.snaketop.net

Posted Image

Posted Image
-2


Page 1 of 1
  • You cannot start a new topic
  • You cannot reply to this topic

1 User(s) are reading this topic
0 members, 1 guests, 0 anonymous users



Our Links :
Flash Games --- SnakeTop News --- Contact Us

Shooting Games | Puzzle Games  | Casino Games | Arcade Games | Action Games | Sports Games | Other Games

Our Friends : Linux-op

IPB skins developed by: eXtremepixels